Skip navigation
richc314159
Currently Being Moderated

Trouble finding a 64bit codec to work with 64bit Premiere Elements 10

Apr 17, 2012 12:36 PM

I cannot get 64bit Adobe Premiere Elements 10 to correctly import videos from my Creative Vado HD camera.  On the Adobe "supported-devices-premiere-elements.html" it clearly lists the Creative Vado HD flip camera as tested & supported.

 

Creative only supplies 32bit codecs for the camera.  It works COMPLETELY with 32bit Adobe Premiere Elements 10 (when installed on my prior computer which only had a 32bit Windows Vista).

 

My current workstation runs 64bit Windows 7, and the 32bit Adobe Premiere Elements 10 installer on Disk1 will not permit installation (attempt ends in an error message instructing that the 64it Adobe Premiere Elements 10 must be installed from Disk2).  I've tried K-Lite 64bit codec pack with the successfully installed 64bit Premiere Elements 10, and I now get video, but audio barely registers from video clips recorded from the camera.

 

I'm open to any means to get 64bit Premiere Elements 10 working with some 64bit codec.  I'm hoping the properties listed by Premiere Elements may provide some insight (I've listed them below).

 

I'm also open to any means to get the 32bit Premiere Elements 10 installed on 64bit Windows 7 (64bit Windows 7 is fully capable of running either 32bit and 64bit apps).  Adobe tech support first suggested I simply install the 32bit version from Disk1, and has not respond further when informed that the 32bit installer won't run on 64bit Windows 7.  It's been a month now and Adobe is offering me little to no help after 9 requests to support.

 

 

 

 

 

 

-----------------------------------------------------------

properties from Creative Vado HD video clip from 32bit Adobe Premiere Elements 10

 

File Path: C:\Users\x\Desktop\VID00101.AVI

Type: AVI Movie

File Size: 20.7 MB

Image Size: 1280 x 720

Frame Rate: 30.00

Source Audio Format: 44100 Hz - 16 bit - Mono

Project Audio Format: 44100 Hz - 32 bit floating point - Mono

Total Duration: 00:00:20:11

Average Data Rate: 1.0 MB / sec

Pixel Aspect Ratio: 1.0

 

-----------------------------------------------------------

properties from Creative Vado HD video clip from 64bit Adobe Premiere Elements 10

 

File Path: C:\Users\x\Desktop\VID00101.AVI

Type: AVI Movie

File Size: 20.7 MB

Image Size: 1280 x 720

Frame Rate: 30.00

Source Audio Format: 44100 Hz - compressed - Mono

Project Audio Format: 44100 Hz - 32 bit floating point - Mono

Total Duration: 00:00:20:11

Average Data Rate: 1.0 MB / sec

Pixel Aspect Ratio: 1.0

 

AVI File Details:

Contains 1 video track(s) and 1 audio track(s)

Interleave: 1 : 1.39

 

Video track 1:

Size is 20.19Mbytes (average frame = 34.56Kbytes)

There are 62 keyframes, 549 delta frames.

Frame rate is 30.000 fps

Frame size is 1280 x 720

Depth is 24 bits.

Compressor: 'H264', ffdshow Video Codec

 

Audio track 1:

Size is 441.00Kbytes

Rate is 44100 samples/sec

Sample size is 16 bits

Compatible compressor: MS-ADPCM

Compression ratio is 3.98 : 1

 

-----------------------------------------------------------

properties from Creative Vado HD video clip from 64bit Media Player Classic (much more complete properties listing)

 

General

Complete name                  : C:\Users\x\Videos\Vado\VID00101.AVI

Format                         : AVI

Format/Info                    : Audio Video Interleave

File size                      : 20.7 MiB

Duration                       : 20s 367ms

Overall bit rate               : 8 505 Kbps

 

Video

ID                             : 0

Format                         : AVC

Format/Info                    : Advanced Video Codec

Format profile                 : Main@L4.0

Format settings, CABAC         : Yes

Format settings, ReFrames      : 1 frame

Format settings, GOP           : M=1, N=5

Codec ID                       : H264

Duration                       : 20s 367ms

Bit rate                       : 8 318 Kbps

Width                          : 1 280 pixels

Height                         : 720 pixels

Display aspect ratio           : 16:9

Frame rate                     : 30.000 fps

Color space                    : YUV

Chroma subsampling             : 4:2:0

Bit depth                      : 8 bits

Scan type                      : Progressive

Bits/(Pixel*Frame)             : 0.301

Stream size                    : 20.2 MiB (98%)

 

Audio

ID                             : 1

Format                         : ADPCM

Codec ID                       : 2

Duration                       : 20s 361ms

Bit rate mode                  : Constant

Bit rate                       : 176.4 Kbps

Channel(s)                     : 1 channel

Sampling rate                  : 44.1 KHz

Bit depth                      : 4 bits

Stream size                    : 441 KiB (2%)

Interleave, duration           : 46 ms (1.39 video frame)

 
Replies
  • Currently Being Moderated
    Apr 17, 2012 12:43 PM   in reply to richc314159

    Rich, weren't we already deep into this in this other thread?

    http://forums.adobe.com/message/4329012#4329012

     

    Why are you starting a new thread when we are already well into a discussion in the other? It's very confusing.

     
    |
    Mark as:
  • Currently Being Moderated
    Apr 17, 2012 6:33 PM   in reply to richc314159

    >K-Lite

     

    Oops! There have been some reports of that codec pack causing problems that were only solved by formatting the hard drive and installing everything fresh

     

    If you have Win7 64bit PRO or higher, try Microsoft's Virtual XP... this may work to let you install PrEL 10 32bit in a virtual space

    .

    This is only ONE example of using Virtual XP http://forums.adobe.com/thread/702693

    -And a Tutorial http://windowssecrets.com/newsletter/using-windows-7s-xp-mode-step-by- step/

     
    |
    Mark as:

More Like This

  • Retrieving data ...

Bookmarked By (0)

Answers + Points = Status

  • 10 points awarded for Correct Answers
  • 5 points awarded for Helpful Answers
  • 10,000+ points
  • 1,001-10,000 points
  • 501-1,000 points
  • 5-500 points