Skip navigation
Bellular
Currently Being Moderated

AVI - Audio Only, No Video

Aug 3, 2013 4:13 PM

The file plays perfectly in VLC however its running into problems with Premiere. When I import the AVI it only imports the audio. I tired to get around this by using a batch file to change the wrapped to mp4, however the video appears as a green screen on the source and preview windows.

 

I am kind of at a loss currently. Ive asked the client for the camera model.

 

Here is the information from mediainfo

General

Complete name                            : E:\Work\Order 2\IMAG8103.AVI

Format                                   : AVI

Format/Info                              : Audio Video Interleave

File size                                : 329 MiB

Duration                                 : 5mn 39s

Overall bit rate mode                    : Variable

Overall bit rate                         : 8 152 Kbps

Recorded date                            : 2009-02-12

Writing library                          : AMBA

ICRT                                     : 12:31:41

 

 

Video

ID                                       : 0

Format                                   : AVC

Format/Info                              : Advanced Video Codec

Format profile                           : Main@L4.0

Format settings, CABAC                   : Yes

Format settings, ReFrames                : 4 frames

Format settings, GOP                     : M=1, N=8

Codec ID                                 : H264

Duration                                 : 5mn 39s

Bit rate mode                            : Variable

Bit rate                                 : 8 001 Kbps

Width                                    : 1 920 pixels

Height                                   : 1 080 pixels

Display aspect ratio                     : 16:9

Frame rate                               : 29.970 fps

Color space                              : YUV

Chroma subsampling                       : 4:2:0

Bit depth                                : 8 bits

Scan type                                : Progressive

Bits/(Pixel*Frame)                       : 0.129

Stream size                              : 324 MiB (98%)

 

 

Audio

ID                                       : 1

Format                                   : AAC

Format/Info                              : Advanced Audio Codec

Format profile                           : LC

Codec ID                                 : FF

Duration                                 : 5mn 38s

Bit rate                                 : 128 Kbps

Channel(s)                               : 2 channels

Channel positions                        : Front: L R

Sampling rate                            : 48.0 KHz

Compression mode                         : Lossy

Stream size                              : 5.17 MiB (2%)

Alignment                                : Split accross interleaves

Interleave, duration                     : 21 ms (0.64 video frame)

 
Replies

More Like This

  • Retrieving data ...

Bookmarked By (0)

Answers + Points = Status

  • 10 points awarded for Correct Answers
  • 5 points awarded for Helpful Answers
  • 10,000+ points
  • 1,001-10,000 points
  • 501-1,000 points
  • 5-500 points