Skip navigation
sn5n
Currently Being Moderated

Sony NEX-5N AVCHD 2.0 1080p50 and Premiere Pro/After Effects CS5.5

Jan 3, 2012 1:09 AM

Tags: #avchd #2.0 #after_effects_cs5.5 #1080p50

I have a new Sony NEX-5N and have shot some test 1080p50 video using it.

 

On my quest for some new editing/production software to close the loop I have just downloaded and installed a Trial Version of CS5.5 Production Premium.

 

I am able to load my video files into Premiere Pro.

 

However, when I attempt to open the Video File in After Effects, I recieve the following Error message:

 

After Effects error: '00023.MTS' cannot be imported - this '.mts' file is damaged or unsupported.

 

Perhaps this is a limitation of the Trial Version or perhaps a limitation of After Effects CS5.5.  Is anyone able to advise?

 

As extra information I include below the TEXT output from MediaInfo for the file I am able to load into Premiere Pro CS5.5 but not After Effects.

 

Thanks.

 

 

General

ID                               : 0 (0x0)

Complete name                    : F:\AVI\Video\SourceMedia\00023.MTS

Format                           : BDAV

Format/Info                      : Blu-ray Video

File size                        : 61.8 MiB

Duration                         : 19s 616ms

Overall bit rate mode            : Variable

Overall bit rate                 : 26.4 Mbps

Maximum Overall bit rate         : 28.0 Mbps

 

 

Video

ID                               : 4113 (0x1011)

Menu ID                          : 1 (0x1)

Format                           : AVC

Format/Info                      : Advanced Video Codec

Format profile                   : High@L4.2

Format settings, CABAC           : Yes

Format settings, ReFrames        : 2 frames

Format settings, GOP             : M=1, N=12

Codec ID                         : 27

Duration                         : 19s 680ms

Bit rate mode                    : Variable

Bit rate                         : 25.1 Mbps

Maximum bit rate                 : 26.0 Mbps

Width                            : 1 920 pixels

Height                           : 1 080 pixels

Display aspect ratio             : 16:9

Frame rate                       : 50.000 fps

Color space                      : YUV

Chroma subsampling               : 4:2:0

Bit depth                        : 8 bits

Scan type                        : Progressive

Bits/(Pixel*Frame)               : 0.242

Stream size                      : 58.8 MiB (95%)

 

 

Audio

ID                               : 4352 (0x1100)

Menu ID                          : 1 (0x1)

Format                           : AC-3

Format/Info                      : Audio Coding 3

Mode extension                   : CM (complete main)

Codec ID                         : 129

Duration                         : 19s 680ms

Bit rate mode                    : Constant

Bit rate                         : 256 Kbps

Channel(s)                       : 2 channels

Channel positions                : Front: L R

Sampling rate                    : 48.0 KHz

Bit depth                        : 16 bits

Compression mode                 : Lossy

Stream size                      : 615 KiB (1%)

 

 

Text

ID                               : 4608 (0x1200)

Menu ID                          : 1 (0x1)

Format                           : PGS

Codec ID                         : 144

Duration                         : 19s 135ms

 
Replies

More Like This

  • Retrieving data ...

Bookmarked By (0)

Answers + Points = Status

  • 10 points awarded for Correct Answers
  • 5 points awarded for Helpful Answers
  • 10,000+ points
  • 1,001-10,000 points
  • 501-1,000 points
  • 5-500 points