12 Replies Latest reply: Aug 9, 2012 6:58 PM by J. Simon RSS

    I just can't seem to get this video to encode correctly. Any Ideas??

    romeogq Community Member

      Attempting to encode the following video via AME CS6 and am currently running into the following problems:

       

      -- When encoding at 30fps (H.264/mp4) -- the duration of the file is correct, but the audio/video runs super fast and sticks on the last frame of the video for the remaining time left.

      -- When encoding at 15fps (3gp)-- the duration of the file and the audio/video are correct, but is very low quality.

      -- When encoding at anything in between (H.264/mp4), the video stutters all the way through.

       

      Very confused as to what is going on. I am simply looking to encode/compress the video in a high quality mp4 file. Any help would be greatly appreciated.

       

      Format                                   : AVI
      Format/Info                              : Audio Video Interleave
      Format profile                           : OpenDML
      File size                                : 30.1 GiB
      Duration                                 : 57mn 14s
      Overall bit rate                         : 75.2 Mbps
      
      
      Video
      ID                                       : 0
      Format                                   : RGB
      Codec ID                                 : 0x00000000
      Codec ID/Info                            : Basic Windows bitmap format. 1, 4 and 8 bpp versions are palettised. 16, 24 and 32bpp contain raw RGB samples
      Duration                                 : 57mn 13s
      Bit rate                                 : 73.8 Mbps
      Width                                    : 640 pixels
      Height                                   : 480 pixels
      Display aspect ratio                     : 4:3
      Frame rate                               : 30.000 fps
      Bit depth                                : 8 bits
      Bits/(Pixel*Frame)                       : 8.005
      Stream size                              : 29.5 GiB (98%)
      
      
      Audio
      ID                                       : 1
      Format                                   : PCM
      Format settings, Endianness              : Little
      Format settings, Sign                    : Signed
      Codec ID                                 : 1
      Duration                                 : 57mn 14s
      Bit rate mode                            : Constant
      Bit rate                                 : 1 411.2 Kbps
      Channel(s)                               : 2 channels
      Sampling rate                            : 44.1 KHz
      Bit depth                                : 16 bits
      Stream size                              : 578 MiB (2%)
      Interleave, duration                     : 502 ms (15.06 video frames)
      Interleave, preload duration             : 502 ms