2 Replies Latest reply on May 24, 2012 12:39 PM by ShutterDug

    APE-10 Video does not play in WMP

    ShutterDug Level 1

      I created a video in HD 720p/30 MPEG-2 format, but it will not play in Windows Media Player 11 or Windows Media Center.

       

      WMP reports: 'This video will not open. It may have been created with a codec that is not supported by WMP. Contact codec provider'. So here I am.

       

      Video/audio plays fine in DivX player.

       

      I created the same video in MPEG-2 Std DVD, and it played fine, just not the quality I wanted.

       

      Are there codecs for this format available for WMP that are not included in APE-10, or Windows 7 Ultimate? If so how do I get and install them so the video will play in WMP.

       

      Thanks

       

      Doug

        • 1. Re: APE-10 Video does not play in WMP
          John T Smith Adobe Community Professional & MVP

          >Video/audio plays fine in DivX player

           

          That leads me to think that you somehow used divx inside that mpeg wrapper

           

          But, to be sure, analyze the file and report back

           

          For PC http://www.headbands.com/gspot/ or http://mediainfo.sourceforge.net/en

          • 2. Re: APE-10 Video does not play in WMP
            ShutterDug Level 1

            I do not use DivX for anything. It is just a player on my computer, I use when I can't open something in WMP. DivX usually opens anything.

             

            Here is the report file from Mediainfo on the file in question. Not sure what 'MPEG-PS' is but I do not see any reference to DivX.

            Can you tell anything from this?

             

            Thanks

            DN

             

            General

            Complete name                            : Y:\Videos\Jessie\Jessica- Le Danse (HD).mpg

            Format                                   : MPEG-PS

            File size                                : 2.71 GiB

            Duration                                 : 49mn 46s

            Overall bit rate mode                    : Variable

            Overall bit rate                         : 7 787 Kbps

             

             

            Video

            ID                                       : 224 (0xE0)

            Format                                   : MPEG Video

            Commercial name                          : HDV 720p

            Format version                           : Version 2

            Format profile                           : Main@High 1440

            Format settings, BVOP                    : Yes

            Format settings, Matrix                  : Default

            Format settings, GOP                     : M=3, N=15

            Duration                                 : 49mn 46s

            Bit rate mode                            : Variable

            Bit rate                                 : 7 248 Kbps

            Maximum bit rate                         : 18.5 Mbps

            Width                                    : 1 280 pixels

            Height                                   : 720 pixels

            Display aspect ratio                     : 16:9

            Frame rate                               : 29.970 fps

            Standard                                 : NTSC

            Color space                              : YUV

            Chroma subsampling                       : 4:2:0

            Bit depth                                : 8 bits

            Scan type                                : Progressive

            Compression mode                         : Lossy

            Bits/(Pixel*Frame)                       : 0.262

            Stream size                              : 2.52 GiB (93%)

            Color primaries                          : BT.709

            Transfer characteristics                 : BT.709

            Matrix coefficients                      : BT.709

             

             

            Audio

            ID                                       : 192 (0xC0)

            Format                                   : MPEG Audio

            Format version                           : Version 1

            Format profile                           : Layer 2

            Duration                                 : 49mn 46s

            Bit rate mode                            : Constant

            Bit rate                                 : 384 Kbps

            Channel(s)                               : 2 channels

            Sampling rate                            : 48.0 KHz

            Compression mode                         : Lossy

            Delay relative to video                  : 24ms

            Stream size                              : 137 MiB (5%)