4 Replies Latest reply on Jun 28, 2012 11:54 AM by davidbeisner2010

    MediaInfo on an XDCAM-EX file that won't open in PrPro6 due to "missing codecs"

    davidbeisner2010 Level 3

      Had a friend do the edit on a video for me in PP5.5 on the Mac. I'm doing the final grading and audio master in PP6 on the PC. All the footage was shot with my JVC GY-HM700u in XDCAM-EX and has worked just fine for me on my system... I gave him .mp4 files, and they've all come back to me as .mov files, and PrPro says it doesn't have the required codec. I'm not willing to do the final work on his systems cause they're old iMacs... my PC has multiple RAID arrays, 24GB ram, good CPU, etc and screams on the audio mastering and grading.

       

      Here's the MediaInfo on one of the files:

       

      General

      Complete name                    : E:\Academics\Majors Videos\Biology\Copied_Biology Promo\BIOL0240_01.mov

      Format                           : QuickTime

      Format/Info                      : Original Apple specifications

      Format_Commercial_IfAny          : XDCAM EX 35

      File size                        : 286 MiB

      Duration                         : 1mn 7s

      Overall bit rate mode            : Variable

      Overall bit rate                 : 35.6 Mbps

      Movie name/More                  : 060a2b340101010501010d43130000007c18c1c7965505c00080884f85010a03

      Encoded date                     : UTC 2012-04-21 21:14:05

      Tagged date                      : UTC 2012-04-23 12:04:14

      Writing library                  : Apple QuickTime

      Original source medium           : Eisenbach

      com.apple.quicktime.information  : 060a2b340101010501010d43130000007c18c1c7965505c00080884f85010a03

      com.sony.bprl.mxf.nrtmetadata    : <?xml version="1.0" encoding="UTF-8" standalone="yes"?><NonRealTimeMeta xmlns="urn:schemas-professionalDisc:nonRealTimeMeta:ver.1.30" xmlns:lib="urn:schemas-professionalDisc:lib:ver.1.30" xmlns:xsi="http://www.w3.org/2001/XMLSchema-instance" lastUpdate="2011-02-04T12:44:59-06:00"><TargetMaterial umidRef="060A2B340101010501010D43130000007C18C1C7965505C00080884F85010A03"></TargetMateri al><Duration value="2025"></Duration><LtcChangeTable tcFps="30" halfStep="false"><LtcChange frameCount="0" value="54462102" status="increment"></LtcChange><LtcChange frameCount="2024" value="40542202" status="end"></LtcChange></LtcChangeTable><CreationDate value="2011-02-04T12:43:51-06:00"></CreationDate><TypicalUbit value="0000000000000000"></TypicalUbit><BodyUmidBasicChangeTable><BodyUmidBasicChange frameCount="0" value="060A2B340101010501010D43330000007C18C1C7965505C00080884F85010A03" status="start"></BodyUmidBasicChange></BodyUmidBasicChangeTable><KlvPacketTable><KlvPacke t key="060E2B34010101050301020A02000000" frameCount="0" lengthValue="095F5265635374617274" status="spot"></KlvPacket></KlvPacketTable><VideoFormat><VideoRecPort port="DIRECT"></VideoRecPort><VideoFrame videoCodec="MPEG2HD35_1920_1080_MP@HL" captureFps="29.97p" recFps="29.97" formatFps="29.97p"></VideoFrame><VideoLayout pixel="1920" numOfVerticalLine="1080" aspectRatio="16:9"></VideoLayout></VideoFormat><AudioFormat numOfChannel="2"><AudioRecPort port="ANALOG" audioCodec="LPCM16" trackDst="CH1"></AudioRecPort><AudioRecPort port="ANALOG" audioCodec="LPCM16" trackDst="CH2"></AudioRecPort></AudioFormat><Device manufacturer="JVC" modelName="GY-HM700" serialNo="105V0780"></Device><RecordingMode type="normal" cacheRec="true"></RecordingMode></NonRealTimeMeta>

      com.sony.bprl.mxf.umid           : 060a2b340101010501010d43130000007c18c1c7965505c00080884f85010a03

      org.smpte.mxf.package.material.p : 0x060a2b340101010501010d43130000007c18c1c7965505c00080884f85010a03

      com.sony.professionaldisc.nonrea : 2011-02-04 12:44:59 -0600

      com.sony.bprl.xdcamtransfer.vers : 2.13.0.650

      com.apple.proapps.reel           : Eisenbach

      com.apple.proapps.clipID         : 060A2B340101010501010D43130000007C18C1C7965505C00080884F85010A03

      com.apple.proapps.originalFormat : XDCAM EX 1080p30 (35 Mb/s VBR)

      Origin                           : MPEG HD

      ©TSC                             : 2997

      ©TSZ                             : 100

       

       

      Video

      ID                               : 1

      Format                           : MPEG Video

      Format_Commercial_IfAny          : XDCAM EX 35

      Format version                   : Version 2

      Format profile                   : Main@High

      Format settings, BVOP            : Yes

      Format settings, Matrix          : Custom

      Format settings, GOP             : M=3, N=15

      Codec ID                         : xdvf

      Duration                         : 1mn 7s

      Bit rate mode                    : Variable

      Bit rate                         : 34.0 Mbps

      Maximum bit rate                 : 35.0 Mbps

      Width                            : 1 888 pixels

      Original width                   : 1 920 pixels

      Height                           : 1 062 pixels

      Original height                  : 1 080 pixels

      Display aspect ratio             : 16:9

      Frame rate mode                  : Constant

      Frame rate                       : 29.970 fps

      Color space                      : YUV

      Chroma subsampling               : 4:2:0

      Bit depth                        : 8 bits

      Scan type                        : Progressive

      Compression mode                 : Lossy

      Bits/(Pixel*Frame)               : 0.566

      Stream size                      : 274 MiB (96%)

      Language                         : English

      Encoded date                     : UTC 2012-04-21 21:14:05

      Tagged date                      : UTC 2012-04-21 21:20:58

      Color primaries                  : BT.709

      Transfer characteristics         : BT.709

      Matrix coefficients              : BT.709

       

       

      Audio #1

      ID                               : 2

      Format                           : PCM

      Format settings, Endianness      : Big

      Format settings, Sign            : Unsigned

      Codec ID                         : lpcm

      Duration                         : 1mn 7s

      Bit rate mode                    : Constant

      Bit rate                         : 768 Kbps

      Channel(s)                       : 1 channel

      Sampling rate                    : 48.0 KHz

      Bit depth                        : 16 bits

      Stream size                      : 6.19 MiB (2%)

      Language                         : English

      Encoded date                     : UTC 2012-04-21 21:14:05

      Tagged date                      : UTC 2012-04-21 21:20:58

       

       

      Audio #2

      ID                               : 3

      Format                           : PCM

      Format settings, Endianness      : Big

      Format settings, Sign            : Unsigned

      Codec ID                         : lpcm

      Duration                         : 1mn 7s

      Bit rate mode                    : Constant

      Bit rate                         : 768 Kbps

      Channel(s)                       : 1 channel

      Sampling rate                    : 48.0 KHz

      Bit depth                        : 16 bits

      Stream size                      : 6.19 MiB (2%)

      Language                         : English

      Encoded date                     : UTC 2012-04-21 21:14:05

      Tagged date                      : UTC 2012-04-21 21:20:58

       

       

      Menu

      ID                               : 4

      Language                         : English

      Encoded date                     : UTC 2012-04-21 21:14:05

      Tagged date                      : UTC 2012-04-21 21:20:58

      Bit rate mode                    : CBR