0 Replies Latest reply on Nov 15, 2012 7:07 AM by jptoney7852

    Exporting H.264 problems

    jptoney7852

      I have a client who needs h.264 video with mpeg4 as the container.  I have put my video settings and what the client provided below for review.  I need to match their requirements exactly.  Thanks

       

      This is what I export:

       

      General

      Complete name                  :

      Format                         : MPEG-4

      Format profile                 : Base Media / Version 2

      Codec ID                       : mp42

      File size                      : 4.02 MiB

      Duration                       : 29s 997ms

      Overall bit rate mode          : Variable

      Overall bit rate               : 1 124 Kbps

      Encoded date                   : UTC 2012-11-13 21:48:55

      Tagged date                    : UTC 2012-11-13 21:48:55

      ©TIM                           : 00:00:00:00

      ©TSC                           : 30000

      ©TSZ                           : 1001

       

      Video

      ID                             : 1

      Format                         : AVC

      Format/Info                    : Advanced Video Codec

      Format profile                 : Main@L5.0

      Format settings, CABAC         : Yes

      Format settings, ReFrames      : 3 frames

      Codec ID                       : avc1

      Codec ID/Info                  : Advanced Video Coding

      Duration                       : 29s 997ms

      Bit rate                       : 993 Kbps

      Width                          : 1 280 pixels

      Height                         : 720 pixels

      Display aspect ratio           : 16:9

      Frame rate mode                : Constant

      Frame rate                     : 29.970 fps

      Standard                       : NTSC

      Color space                    : YUV

      Chroma subsampling             : 4:2:0

      Bit depth                      : 8 bits

      Scan type                      : Progressive

      Bits/(Pixel*Frame)             : 0.036

      Stream size                    : 3.55 MiB (88%)

       

      This is what I need it to be:

      General

      Complete name                  :

      Format                         : MPEG-4

      Format profile                 : Base Media / Version 2

      Codec ID                       : mp42

      File size                      : 7.46 MiB

      Duration                       : 15s 115ms

      Overall bit rate mode          : Variable

      Overall bit rate               : 4 142 Kbps

       

      Video

      ID                             : 1

      Format                         : MPEG-4 Visual

      Format profile                 : Simple@L3

      Format settings, BVOP          : No

      Format settings, QPel          : No

      Format settings, GMC           : No warppoints

      Format settings, Matrix        : Default (H.263)

      Codec ID                       : 20

      Duration                       : 15s 115ms

      Bit rate mode                  : Variable

      Bit rate                       : 4 008 Kbps

      Maximum bit rate               : 5 785 Kbps

      Width                          : 1 280 pixels

      Height                         : 720 pixels

      Display aspect ratio           : 16:9

      Frame rate mode                : Constant

      Frame rate                     : 29.970 fps

      Color space                    : YUV

      Chroma subsampling             : 4:2:0

      Bit depth                      : 8 bits

      Scan type                      : Progressive

      Compression mode               : Lossy

      Bits/(Pixel*Frame)             : 0.145

      Stream size                    : 7.22 MiB (97%)