8 Replies Latest reply: Dec 12, 2012 1:59 PM by J. Simon RSS

    Error decompressing - now AME and Premiere freeze during import

    wflex

      The person who gave me this footage compressed it from an AVI. I'm not very good with codecs and what not, so I hope y'all can point me in the right direction.

      Playback is fine, just no import. Other MP4s play and import fine.

       

      Running CS6 and just purchased QuickTime Pro 7 in hopes it would help, but no luck. With the long list of InstalledCodecs (report below), I'm hesitant to disable any because as I said I'm not sure which are what. I would love to just re-install this entire damn OS and Suite and hope for the best - but I really just want to work with this clip already.

       

      InstalledCodec report: http://www.secularuh.org/hosted/report.html

       

      GSpot:

      http://secularuh.org/hosted/gspot.png

       

      MediaInfo:

      Complete name                            : C:UserstlowDocumentsEnvoyMPV2012_12RAWEnvoy Nov 2012_PGM_0001.mp4
      Format                                   : MPEG-PS
      File size                                : 19.1 GiB
      Duration                                 : 26mn 26s
      Overall bit rate mode                    : Variable
      Overall bit rate                         : 104 Mbps

      Video
      ID                                       : 224 (0xE0)
      Format                                   : MPEG Video
      Format version                           : Version 2
      Format profile                           : Main@High
      Format settings, BVOP                    : No
      Format settings, Matrix                  : Default
      Format settings, GOP                     : N=1
      Duration                                 : 26mn 26s
      Bit rate mode                            : Variable
      Bit rate                                 : 100.0 Mbps
      Width                                    : 1 920 pixels
      Height                                   : 1 080 pixels
      Display aspect ratio                     : 16:9
      Frame rate                               : 29.970 fps
      Standard                                 : NTSC
      Color space                              : YUV
      Chroma subsampling                       : 4:2:0
      Bit depth                                : 8 bits
      Scan type                                : Interlaced


      Scan order                               : Top Field First
      Compression mode                         : Lossy
      Bits/(Pixel*Frame)                       : 1.609
      Stream size                              : 18.6 GiB (97%)

      Audio #1
      ID                                       : 192 (0xC0)
      Format                                   : MPEG Audio
      Format version                           : Version 1
      Format profile                           : Layer 2
      Duration                                 : 26mn 26s
      Bit rate mode                            : Constant
      Bit rate                                 : 384 Kbps
      Channel(s)                               : 2 channels
      Sampling rate                            : 48.0 KHz
      Compression mode                         : Lossy
      Stream size                              : 72.6 MiB (0%)

      Audio #2
      ID                                       : 193 (0xC1)
      Format                                   : MPEG Audio
      Format version                           : Version 1
      Format profile                           : Layer 2
      Duration                                 : 26mn 26s

      Bit rate mode                            : Constant
      Bit rate                                 : 384 Kbps
      Channel(s)                               : 2 channels
      Sampling rate                            : 48.0 KHz
      Compression mode                         : Lossy
      Stream size                              : 72.6 MiB (0%)