6 Replies Latest reply on Dec 26, 2012 4:46 PM by si conehead

    Is my clip interlaced or non-interlaced?

    si conehead Level 2

      Is there a way in PP that I can find this info, or is there another product that will give me this info? I am running CS5 on a Windows 7 64 bit PC.

        • 1. Re: Is my clip interlaced or non-interlaced?
          Peru Bob Adobe Community Professional & MVP

          This is a good, free one:

           

          http://mediainfo.sourceforge.net/en

           

          Create a shortcut on the desktop and drag your media file into it.

          • 2. Re: Is my clip interlaced or non-interlaced?
            si conehead Level 2

            I ran the program on my clip but I do not see where it tells me it is interlaced or not

            • 3. Re: Is my clip interlaced or non-interlaced?
              Ann Bens Adobe Community Professional & MVP

              post a screendump in tree view.

              • 4. Re: Is my clip interlaced or non-interlaced?
                si conehead Level 2

                General

                Complete name                            : C:\Users\WarChief1\Desktop\Adobe Lens Correction\MAH00486.MP4

                Format                                   : MPEG-4

                Format profile                           : Sony PSP

                Codec ID                                 : MSNV

                File size                                : 7.23 MiB

                Duration                                 : 5s 5ms

                Overall bit rate mode                    : Variable

                Overall bit rate                         : 12.1 Mbps

                Encoded date                             : UTC 2012-12-26 15:40:34

                Tagged date                              : UTC 2012-12-26 15:40:40

                 

                Video

                ID                                       : 1

                Format                                   : AVC

                Format/Info                              : Advanced Video Codec

                Format profile                           : Main@L4.0

                Format settings, CABAC                   : Yes

                Format settings, ReFrames                : 2 frames

                Codec ID                                 : avc1

                Codec ID/Info                            : Advanced Video Coding

                Duration                                 : 5s 5ms

                Bit rate mode                            : Variable

                Bit rate                                 : 12.0 Mbps

                Maximum bit rate                         : 16.0 Mbps

                Width                                    : 1 440 pixels

                Height                                   : 1 080 pixels

                Display aspect ratio                     : 16:9

                Frame rate mode                          : Constant

                Frame rate                               : 29.970 fps

                Color space                              : YUV

                Chroma subsampling                       : 4:2:0

                Bit depth                                : 8 bits

                Scan type                                : Progressive

                Bits/(Pixel*Frame)                       : 0.257

                Stream size                              : 7.15 MiB (99%)

                Encoded date                             : UTC 2012-12-26 15:40:34

                Tagged date                              : UTC 2012-12-26 15:40:40

                 

                Audio

                ID                                       : 2

                Format                                   : AAC

                Format/Info                              : Advanced Audio Codec

                Format profile                           : LC

                Codec ID                                 : 40

                Duration                                 : 4s 992ms

                Bit rate mode                            : Constant

                Bit rate                                 : 128 Kbps

                Channel(s)                               : 2 channels

                Channel positions                        : Front: L R

                Sampling rate                            : 48.0 KHz

                Compression mode                         : Lossy

                Delay relative to video                  : 33ms

                Stream size                              : 76.4 KiB (1%)

                Encoded date                             : UTC 2012-12-26 15:40:34

                Tagged date                              : UTC 2012-12-26 15:40:40

                • 5. Re: Is my clip interlaced or non-interlaced?
                  AngeloLorenzo Level 1

                  Steve Cohen wrote:

                  ...

                  Scan type                                : Progressive

                  ...

                  It's a progressive clip. Progressive, for all intent and purpose, is the opposite of interlaced. It is showing/refreshing the entire frame of video at once.

                  • 6. Re: Is my clip interlaced or non-interlaced?
                    si conehead Level 2

                    Got it.

                     

                    Thanks for everyone's help

                     

                    Steve Cohen