2 Replies Latest reply on Jan 15, 2013 4:39 PM by 顺风尿尿尿千里

    how can I import F4V or flv files

    顺风尿尿尿千里

      I downloaded some videos from tudou.com ,I want to edit them ,but it seems that i can't import them to PR cs6 , They are f4v files ,and some flv files also can't be imported,    my win8 system had installed    win8 codecs  ,but no work ,i changed   win8 codecs   to  K-lite codecs   , still no  work

       

      so ,i wonder how can i import the f4v files~ 

       

      thanks!!!

       

      the video information is below

       

       

      General
      Complete name                  : D:\视频\秦时明月-万里长城\万里长城01.f4v
      Format                         : Flash Video
      File size                      : 489 MiB
      Duration                       : 22mn 0s
      Overall bit rate               : 3 105 Kbps
      Writing application            : m_0682044e1fb8335ad6dca1f39d84f022_md Tudou, Inc.
      Tagging application            : Tudou Metadata Injector for FLV - Version 1.0
      liveXML                        : <?xpacket begin="" id="W5M0MpCehiHzreSzNTczkc9d"?>

      Video
      Format                         : AVC
      Format/Info                    : Advanced Video Codec
      Format profile                 : Main@L3.1
      Format settings, CABAC         : Yes
      Format settings, ReFrames      : 4 frames
      Codec ID                       : 7
      Duration                       : 22mn 32s
      Bit rate                       : 2 965 Kbps
      Width                          : 1 280 pixels
      Height                         : 720 pixels
      Display aspect ratio           : 16:9
      Frame rate mode                : Constant
      Frame rate                     : 25.000 fps
      Color space                    : YUV
      Chroma subsampling             : 4:2:0
      Bit depth                      : 8 bits
      Scan type                      : Progressive
      Bits/(Pixel*Frame)             : 0.129
      Stream size                    : 478 MiB (98%)

      Audio
      Format                         : AAC
      Format/Info                    : Advanced Audio Codec
      Format profile                 : HE-AAC / LC
      Codec ID                       : 10
      Duration                       : 22mn 0s
      Bit rate                       : 61.7 Kbps
      Channel(s)                     : 2 channels
      Channel positions              : Front: L R
      Sampling rate                  : 48.0 KHz / 24.0 KHz
      Compression mode               : Lossy
      Stream size                    : 10.3 MiB (2%)