1 Reply Latest reply on Jun 15, 2013 5:16 PM by Jim_Simon

    encoding error on Apple Pro Res file

    green3400

      Hi All,

      New to PP and Media Encoder

      Trying to encode an HD file to H264 from an Pro Res source (inserted is mediacoder info) using H264.  It is throwing an error at the same place (a couple of minutes into the sequence). I am using Adobe Media encoder.  I've tried to export to mpeg and AVI and same error.  No clues in the error log "  Export Error Error compiling movie.    Unknown error."   Also no visible artifacts or issues when viewing the sequence in PP. It plays right through...

       

      I've resaved the file in QT Pro and same problem.  I am also using TMPGENC and it also errors in that software as well at the same place.  The error log is a bit more robust in TMPGENC and says the "faulty module is the AppleProResDecoder.qtx" and includes faulting adresss...

       

      My rig is very robust with 16 GB ram 64 bit and tons o hard space (running windows 8 but also tried this in tmpgenc with an older OS and still crashes)

       

      Any suggestions??

       

      Thanks

       

       

      General
      Complete name                            : G:\aa\OLN_SPAN_1009.mov
      Format                                   : MPEG-4
      Format profile                           : QuickTime
      Codec ID                                 : qt  
      File size                                : 71.1 GiB
      Duration                                 : 1h 31mn
      Overall bit rate mode                    : Variable
      Overall bit rate                         : 112 Mbps
      Encoded date                             : UTC 2007-10-09 18:40:59
      Tagged date                              : UTC 2013-06-13 14:52:30
      Writing library                          : Apple QuickTime
      ©TSC                                     : 24
      ©TSZ                                     : 1
      
      
      Video
      ID                                       : 20
      Format                                   : ProRes
      Format version                           : Version 0
      Codec ID                                 : apcn
      Duration                                 : 1h 31mn
      Bit rate mode                            : Variable
      Bit rate                                 : 106 Mbps
      Width                                    : 1 920 pixels
      Height                                   : 1 080 pixels
      Display aspect ratio                     : 16:9
      Frame rate mode                          : Constant
      Frame rate                               : 23.976 fps
      Color space                              : YUV
      Chroma subsampling                       : 4:2:2
      Scan type                                : Progressive
      Bits/(Pixel*Frame)                       : 2.122
      Stream size                              : 67.2 GiB (94%)
      Writing library                          : Apple
      Language                                 : English
      Encoded date                             : UTC 2008-01-13 23:14:32
      Tagged date                              : UTC 2008-01-13 23:14:32
      Color primaries                          : BT.709
      Transfer characteristics                 : BT.709
      Matrix coefficients                      : BT.709
      
      
      Audio #1
      ID                                       : 2
      Format                                   : PCM
      Format settings, Endianness              : Big
      Format settings, Sign                    : Signed
      Codec ID                                 : twos
      Duration                                 : 1h 31mn
      Bit rate mode                            : Constant
      Bit rate                                 : 768 Kbps
      Channel(s)                               : 1 channel
      Sampling rate                            : 48.0 KHz
      Bit depth                                : 16 bits
      Stream size                              : 501 MiB (1%)
      Language                                 : English
      Encoded date                             : UTC 2007-10-09 18:40:59
      Tagged date                              : UTC 2007-10-10 01:22:03
      
      
      Audio #2
      ID                                       : 3
      Format                                   : PCM
      Format settings, Endianness              : Big
      Format settings, Sign                    : Signed
      Codec ID                                 : twos
      Duration                                 : 1h 31mn
      Bit rate mode                            : Constant
      Bit rate                                 : 768 Kbps
      Channel(s)                               : 1 channel
      Sampling rate                            : 48.0 KHz
      Bit depth                                : 16 bits
      Stream size                              : 501 MiB (1%)
      Language                                 : English
      Encoded date                             : UTC 2007-10-09 18:40:59
      Tagged date                              : UTC 2007-10-10 01:22:03
      
      
      Audio #3
      ID                                       : 4
      Format                                   : PCM
      Format settings, Endianness              : Big
      Format settings, Sign                    : Signed
      Codec ID                                 : twos
      Duration                                 : 1h 31mn
      Bit rate mode                            : Constant
      Bit rate                                 : 768 Kbps
      Channel(s)                               : 1 channel
      Sampling rate                            : 48.0 KHz
      Bit depth                                : 16 bits
      Stream size                              : 501 MiB (1%)
      Language                                 : English
      Encoded date                             : UTC 2007-10-09 18:40:59
      Tagged date                              : UTC 2007-10-10 01:22:03
      
      
      Audio #4
      ID                                       : 5
      Format                                   : PCM
      Format settings, Endianness              : Big
      Format settings, Sign                    : Signed
      Codec ID                                 : twos
      Duration                                 : 1h 31mn
      Bit rate mode                            : Constant
      Bit rate                                 : 768 Kbps
      Channel(s)                               : 1 channel
      Sampling rate                            : 48.0 KHz
      Bit depth                                : 16 bits
      Stream size                              : 501 MiB (1%)
      Language                                 : English
      Encoded date                             : UTC 2007-10-09 18:40:59
      Tagged date                              : UTC 2007-10-10 01:22:03
      
      
      Audio #5
      ID                                       : 6
      Format                                   : PCM
      Format settings, Endianness              : Big
      Format settings, Sign                    : Signed
      Codec ID                                 : twos
      Duration                                 : 1h 31mn
      Bit rate mode                            : Constant
      Bit rate                                 : 768 Kbps
      Channel(s)                               : 1 channel
      Sampling rate                            : 48.0 KHz
      Bit depth                                : 16 bits
      Stream size                              : 501 MiB (1%)
      Language                                 : English
      Encoded date                             : UTC 2007-10-09 18:40:59
      Tagged date                              : UTC 2007-10-10 01:22:03
      
      
      Audio #6
      ID                                       : 7
      Format                                   : PCM
      Format settings, Endianness              : Big
      Format settings, Sign                    : Signed
      Codec ID                                 : twos
      Duration                                 : 1h 31mn
      Bit rate mode                            : Constant
      Bit rate                                 : 768 Kbps
      Channel(s)                               : 1 channel
      Sampling rate                            : 48.0 KHz
      Bit depth                                : 16 bits
      Stream size                              : 501 MiB (1%)
      Language                                 : English
      Encoded date                             : UTC 2007-10-09 18:40:59
      Tagged date                              : UTC 2007-10-10 01:22:03
      
      
      Audio #7
      ID                                       : 8
      Format                                   : PCM
      Format settings, Endianness              : Big
      Format settings, Sign                    : Signed
      Codec ID                                 : twos
      Duration                                 : 1h 31mn
      Bit rate mode                            : Constant
      Bit rate                                 : 768 Kbps
      Channel(s)                               : 1 channel
      Sampling rate                            : 48.0 KHz
      Bit depth                                : 16 bits
      Stream size                              : 501 MiB (1%)
      Language                                 : English
      Encoded date                             : UTC 2007-10-09 18:40:59
      Tagged date                              : UTC 2007-10-10 01:22:03
      
      
      Audio #8
      ID                                       : 9
      Format                                   : PCM
      Format settings, Endianness              : Big
      Format settings, Sign                    : Signed
      Codec ID                                 : twos
      Duration                                 : 1h 31mn
      Bit rate mode                            : Constant
      Bit rate                                 : 768 Kbps
      Channel(s)                               : 1 channel
      Sampling rate                            : 48.0 KHz
      Bit depth                                : 16 bits
      Stream size                              : 501 MiB (1%)
      Language                                 : English
      Encoded date                             : UTC 2007-10-09 18:40:59
      Tagged date                              : UTC 2007-10-10 01:22:03
      
      
      Other
      ID                                       : 10
      Type                                     : Time code
      Format                                   : QuickTime TC
      Duration                                 : 1h 31mn
      Time code of first frame                 : 00:58:30:00
      Time code settings                       : Striped
      Language                                 : English
      Encoded date                             : UTC 2007-10-10 01:22:03
      Tagged date                              : UTC 2007-10-10 01:22:03