0 Replies Latest reply on Sep 17, 2013 8:19 AM by Nuttanunt Chinthawon

    How to export files (e.g. .mov .avi .mp4 .mpg .mpeg etc.) to XDCAM EX 35 MPEG 4 QuickTime file

    Nuttanunt Chinthawon

      How to export files (e.g. .mov .avi .mp4 .mpg .mpeg etc.) to XDCAM EX 35 MPEG 4 QuickTime file with Adobe Premier Pro CC

      Sep 5, 2013 2:31 PM

      Tags: none (add)

       

       

      To Support Team

       

      I use Premiere Pro CC from Adobe creative cloud.

      I have all footage files format (e.g. .mov .avi .mp4 .mpeg .mpg  etc.) to use in my project.

       

      “How to export files to XDCAM EX 35 MPEG 4 QuickTime file with Adobe creative cloud Premiere Pro CC ?”

       

      What is program to use? or

      What is plugin to use? or

      How to set sequence ? or etc.

      Thank you very much.

       

      Best Regards

      N. Chinthawon

      Bangkok

      Thailand

       

      e.g.

       

      Format                                   : MPEG-4

      Commercial name                          : XDCAM EX 35

      Format profile                           : QuickTime

      Codec ID                                 : qt

      File size                                : 50.9 MiB

      Duration                                 : 15s 0ms

      Overall bit rate mode                    : Variable

      Overall bit rate                         : 28.5 Mbps

      Encoded date                             : UTC 2013-06-18 10:04:37

      Tagged date                              : UTC 2013-06-18 10:04:38

      Writing library                          : Apple QuickTime

      Media/UUID                               : A185EBC7-7ACA-4F9A-B537-D52733598430

       

       

      Video

      ID                                       : 1

      Format                                   : MPEG Video

      Commercial name                          : XDCAM EX 35

      Format version                           : Version 2

      Format profile                           : Main@High

      Format settings, BVOP                    : Yes

      Format settings, Matrix                  : Custom

      Format settings, GOP                     : M=3, N=12

      Codec ID                                 : xdvc

      Duration                                 : 15s 0ms

      Bit rate mode                            : Variable

      Bit rate                                 : 26.9 Mbps

      Maximum bit rate                         : 35.0 Mbps

      Width                                    : 1 888 pixels

      Original width                           : 1 920 pixels

      Height                                   : 1 062 pixels

      Original height                          : 1 080 pixels

      Display aspect ratio                     : 16:9

      Frame rate mode                          : Constant

      Frame rate                               : 25.000 fps

      Standard                                 : Component

      Color space                              : YUV

      Chroma subsampling                       : 4:2:0

      Bit depth                                : 8 bits

      Scan type                                : Interlaced

      Scan order                               : Top Field First

      Compression mode                         : Lossy

      Bits/(Pixel*Frame)                       : 0.537

      Time code of first frame                 : 00:00:00:00

      Time code source                         : Group of pictures header

      Stream size                              : 48.2 MiB (95%)

      Language                                 : English

      Encoded date                             : UTC 2013-06-18 10:04:37

      Tagged date                              : UTC 2013-06-18 10:04:38

      Color primaries                          : BT.709

      Transfer characteristics                 : BT.709

      Matrix coefficients                      : BT.709

       

      Audio

      ID                                       : 2

      Format                                   : PCM

      Format settings, Endianness              : Little

      Format settings, Sign                    : Signed

      Codec ID                                 : sowt

      Duration                                 : 15s 0ms

      Bit rate mode                            : Constant

      Bit rate                                 : 1 536 Kbps

      Channel(s)                               : 2 channels

      Channel positions                        : Front: L R

      Sampling rate                            : 48.0 KHz

      Bit depth                                : 16 bits

      Stream size                              : 2.75 MiB (5%)

      Language                                 : English

      Encoded date                             : UTC 2013-06-18 10:04:37

      Tagged date                              : UTC 2013-06-18 10:04:38

       

       

      Other

      ID                                       : 3

      Type                                     : Time code

      Format                                   : QuickTime TC

      Duration                                 : 15s 0ms

      Time code of first frame                 : 00:00:13:15

      Time code settings                       : Striped

      Language                                 : English

      Encoded date                             : UTC 2013-06-18 10:04:38

      Tagged date                              : UTC 2013-06-18 10:04:38