13 Replies Latest reply: Dec 13, 2013 6:54 PM by Juan-Manuel Herrera_TERRA RSS

    RED FRAME in source_Clip or Program_sequence of a media 720p MXF whit AFD(active format descriptor)

    Juan-Manuel Herrera_TERRA

      Hi Adobe,

       

       

      As you can see here I have a file that I am not able to read in my new Adobe Premiere CC 7.2.0 as this red frame appear!
      I hope you can help me whit my problem

      Capture PREMIERE PRO CC 7.2.PNG

      I use Harmonics Rhozet to do and its seem like my filters add to my Watch folder may cause the problem as PP CC cant read the file.
      In my transcoding setting I have insert AFD (Active Format Descriptor) processor 169_8 filter and a AFD TO SMPTE291m

      Here is some capture of thoses filters:

      Capture_Rhozet filter AFD Processor 169_8.JPGCapture_Rhozet filter AFD TO SMPTE291m.JPG

       

       

      Here is the MEDIAINFO of my file:

       

      Format                               : MXF
      Commercial name                      : XDCAM HD 35
      Format profile                       : OP-1a
      Format settings                      : Closed / Complete
      File size                            : 14.2 GiB
      Duration                             : 53mn 41s
      Overall bit rate                     : 38.0 Mbps
      Encoded date                         : 2013-12-12 14:26:53.000
      Writing application                  : Rhozet Carbon 1.00
      Writing library                      : Rhozet Carbon 1.00

       

      Video

      ID                                   : 2
      Format                               : MPEG Video
      Commercial name                      : XDCAM HD 35
      Format version                       : Version 2
      Format profile                       : Main@High
      Format settings, BVOP                : Yes
      Format settings, Matrix              : Custom
      Format settings, GOP                 : M=3, N=12
      Format_Settings_Wrapping             : Frame
      Duration                             : 53mn 41s
      Bit rate                             : 35.0 Mbps
      Width                                : 1 280 pixels
      Height                               : 720 pixels
      Display aspect ratio                 : 16:9
      Active Format Description            : Pillarbox 4:3 image
      Frame rate                           : 59.940 fps
      Color space                          : YUV
      Chroma subsampling                   : 4:2:0
      Bit depth                            : 8 bits
      Scan type                            : Progressive
      Compression mode                     : Lossy
      Bits/(Pixel*Frame)                   : 0.634
      Time code of first frame             : 00:00:00:00
      Time code source                     : Group of pictures header
      Stream size                          : 13.1 GiB (92%)

       

      Audio #1

      ID                                   : 3
      Format                               : PCM
      Format settings, Endianness          : Little
      Format_Settings_Wrapping             : Frame (AES)
      Duration                             : 53mn 41s
      Bit rate mode                        : Constant
      Bit rate                             : 768 Kbps
      Channel(s)                           : 1 channel
      Sampling rate                        : 48.0 KHz
      Bit depth                            : 16 bits
      Stream size                          : 295 MiB (2%)

       

      Audio #2

      ID                                   : 4
      Format                               : PCM
      Format settings, Endianness          : Little
      Format_Settings_Wrapping             : Frame (AES)
      Duration                             : 53mn 41s
      Bit rate mode                        : Constant
      Bit rate                             : 768 Kbps
      Channel(s)                           : 1 channel
      Sampling rate                        : 48.0 KHz
      Bit depth                            : 16 bits
      Stream size                          : 295 MiB (2%)

       

      Other

      ID                                   : 1
      Type                                 : Time code
      Format                               : MXF TC
      Time code of first frame             : 00:00:00;00
      Time code settings                   : Striped

       

       

      I am waiting for a answer

      Thank you
      Juan

      TerraTerra Communications Inc.

       

      Message was edited by: Juan-Manuel Herrera_TERRA