3 Replies Latest reply on Apr 27, 2014 1:56 PM by A.T. Romano

    Audio out of sync - The source video caught with Game-Capture-Card (HD PVR 2)

    TatzyXY

      Helo Guys,

       

      I have a Problem with my Video-Game-Capture-Card (Hauppauge HD PVR 2 Gaming ED).

      When I finish my record the Video-Files works fine in VLC, WMP, etc.

       

      But If I import the video in PE, the audio get out of sync. The Audio gets out of sync, when I start playing the game in the video, if i stay whole time on desktop all is fine.

       

      I think its a problem with the frame rate which cause problems in PE.

       

      On Dekstop the FrameRate is 60 or what ever, in the Game it suddenly dynamic. Maybe this is the problem?

       

      I read the MediaInfos from the video file, there is no hint, thats the file have an dynamic frame rate.

      Maybe the problem is an other? Have you guys an hint, what i do wrong?

       

      In Sony Movie Studio it works also fine but i really prefer adobe PE.

       

      PS: Sorry for my english, which is the worst on planet!

       

       

      Here the file infos:

      General

      ID                                       : 0 (0x0)

      Complete name                            : C:\Users\Sven\Videos\xy.ts

      Format                                   : MPEG-TS

      File size                                : 437 MiB

      Duration                                 : 4mn 19s

      Overall bit rate mode                    : Variable

      Overall bit rate                         : 14.1 Mbps

      Maximum Overall bit rate                 : 5 000 Kbps

       

       

      Video

      ID                                       : 4113 (0x1011)

      Menu ID                                  : 1 (0x1)

      Format                                   : AVC

      Format/Info                              : Advanced Video Codec

      Format profile                           : High@L4.0

      Format settings, CABAC                   : Yes

      Format settings, ReFrames                : 3 frames

      Codec ID                                 : 27

      Duration                                 : 4mn 19s

      Bit rate                                 : 13.2 Mbps

      Width                                    : 1 920 pixels

      Height                                   : 1 080 pixels

      Display aspect ratio                     : 16:9

      Frame rate                               : 29.970 fps

      Standard                                 : Component

      Color space                              : YUV

      Chroma subsampling                       : 4:2:0

      Bit depth                                : 8 bits

      Scan type                                : Progressive

      Bits/(Pixel*Frame)                       : 0.212

      Stream size                              : 407 MiB (93%)

      Color primaries                          : BT.709

      Transfer characteristics                 : BT.709

      Matrix coefficients                      : BT.709

       

       

      Audio

      ID                                       : 4352 (0x1100)

      Menu ID                                  : 1 (0x1)

      Format                                   : MPEG Audio

      Format version                           : Version 1

      Format profile                           : Layer 2

      Codec ID                                 : 3

      Duration                                 : 4mn 19s

      Bit rate mode                            : Constant

      Bit rate                                 : 256 Kbps

      Channel(s)                               : 2 channels

      Sampling rate                            : 48.0 KHz

      Compression mode                         : Lossy

      Delay relative to video                  : -20ms

      Stream size                              : 7.93 MiB (2%)