0 Replies Latest reply on Dec 25, 2014 3:03 AM by Kirill_F

    Premiere Pro CC crashes because of volume keyframes in the nested sequence

    Kirill_F

      Hello. Looks like there is a bug in the Adobe Premiere Pro CC 8.2.0(65) Build.

      The problem is that Premiere crashes each time I have volume keyframes on the clips inside a nested sequence.

      So I have one Master sequence and I put a Nested sequence in it. In the Nested sequence I have few subclips with volume keyframes on them. Premiere crashes each time as I roll the playback head over the Master's timeline with the Nested sequence in it. Everything works fine if i delete all volume keyframes on the subclips inside the Nested sequence.

      I also noticed that there is no issues when I roll the playback head over these subclips(with or without keyframes) while I am in the Nested sequece. It only occurs on the Master's timeline and in any place.

       

      Master Sequence is 1280x720. The Nested is 4k. Subclips mediainfo:

       

      Format     : XAVC

      Codec ID     : XAVC

      File size     : 1.94 GiB

      Duration     : 5mn 35s

      Overall bit rate mode     : Variable

      Overall bit rate                         : 49.7 Mbps

       

      Video

      ID     : 1

      Format     : AVC

      Format/Info     : Advanced Video Codec

      Format profile     : High@L5.1

      Format settings, CABAC     : Yes

      Format settings, ReFrames     : 2 frames

      Codec ID     : avc1

      Codec ID/Info     : Advanced Video Coding

      Duration     : 5mn 35s

      Bit rate mode     : Variable

      Bit rate     : 48.0 Mbps

      Maximum bit rate     : 60.0 Mbps

      Width     : 3 840 pixels

      Height     : 2 160 pixels

      Display aspect ratio     : 16:9

      Frame rate mode     : Constant

      Frame rate     : 25.000 fps

      Color space     : YUV

      Chroma subsampling                       : 4:2:0

      Bit depth                                : 8 bits

      Scan type                                : Progressive

      Bits/(Pixel*Frame)                       : 0.231

      Stream size                              : 1.88 GiB (96%)

      Color primaries                          : BT.709

      Transfer characteristics                 : IEC 61966-2-4

      Matrix coefficients                      : BT.709

       

      Audio

      ID                                       : 2

      Format                                   : PCM

      Format settings, Endianness              : Big

      Format settings, Sign                    : Signed

      Codec ID                                 : twos

      Duration                                 : 5mn 35s

      Bit rate mode                            : Constant

      Bit rate                                 : 1 536 Kbps

      Channel(s)                               : 2 channels

      Sampling rate                            : 48.0 KHz

      Bit depth                                : 16 bits

      Delay relative to video                  : 40ms

      Stream size                              : 61.4 MiB (3%)