3 Replies Latest reply on Jul 28, 2015 2:29 PM by Dave LaRonde

    Importing ProRes files on Mac

    denism96121983

      Hey folks!

      I just encountered the problem - I can not import files recorded in ProRes format on Mac...

      I have installed iOS 10.8.5 and AE CS5.5.

      ProRes files parameters are as follow:

       

      General

      Format                           : MPEG-4

      Format profile                 : QuickTime

      Codec ID                        : qt 

      Overall bit rate mode       : Variable

      Overall bit rate                : 811 Mbps

      Writing library                : Apple QuickTime

       

       

      Video

      ID                                 : 2

      Format                         : ProRes

      Format version              : Version 0

      Format profile                : 422 HQ

      Codec ID                      : apch

      Duration                       : 8s 208ms

      Bit rate mode                : Variable

      Bit rate                        : 820 Mbps

      Width                          : 3 840 pixels

      Height                         : 2 160 pixels

      Display aspect ratio      : 16:9

      Frame rate mode          : Constant

      Frame rate                    : 29.970 fps

      Color space                  : YUV

      Chroma subsampling     : 4:2:2

      Scan type                     : Progressive

      Bits/(Pixel*Frame)         : 3.298

      Stream size                  : 802 MiB (99%)

      Writing library               : atms

      Language                      : English

      Color primaries                : BT.709

      Transfer characteristics       : BT.709

      Matrix coefficients            : BT.709

       

       

      Audio

      ID                             : 1

      Format                      : PCM

      Format settings, Endianness    : Little

      Format settings, Sign        : Unsigned

      Codec ID                          : in24

      Duration                           : 8s 342ms

      Bit rate mode                    : Constant

      Bit rate                             : 4 608 Kbps

      Channel(s)                        : 4 channels

      Sampling rate                    : 48.0 KHz

      Bit depth                          : 24 bits

      Stream size                      : 1.15 MiB (0%)

      Language                         : English

       

       

      Other

      ID                                   : 3

      Type                               : Time code

      Format                           : QuickTime TC

      Duration                          : 8s 342ms

      Time code of first frame    : 11:29:03;24

      Time code, striped           : Yes

      Language                       : English

       

      Can you, please, help with this?

      Thank you in advance!