12 Replies Latest reply on Jul 16, 2015 12:10 PM by MissRiley

    Mocha Tracking Help

    MissRiley Level 1

      Ok so I just discovered Mocha and it's AMAZING! Much quicker than manually adding all my keyframes. I am having an issue with my footage being off though. There is no anchor point set. I am not sure what the issue is. I inserted the track into the right location and *thought* I got the frame rate stuff correct but I am not sure. Please let me know what info I may need to post for help. I have included the media info for the clip and the settings I used for mocha. Please help me, I'm going insane!! LOL. Thank you.

      Format                              : MPEG-4
      Format profile                      : Base Media / Version 2
      Codec ID                            : mp42
      File size                           : 408 MiB
      Duration                            : 6mn 39s
      Overall bit rate                    : 8 586 Kbps
      Codirector                          : codirector
      Production studio                   : studio
      ContentType                         : Unknown Type
      Encoded date                        : UTC 2015-06-28 00:15:02
      Tagged date                         : UTC 2015-06-28 00:15:02

       

      Video

      ID                                  : 1
      Format                              : AVC
      Format/Info                         : Advanced Video Codec
      Format profile                      : Baseline@L5
      Format settings, CABAC              : No
      Format settings, ReFrames           : 1 frame
      Format settings, GOP                : M=1, N=25
      Muxing mode                         : Container profile=Baseline@4.1
      Codec ID                            : avc1
      Codec ID/Info                       : Advanced Video Coding
      Duration                            : 6mn 39s
      Bit rate                            : 8 421 Kbps
      Width                               : 1 920 pixels
      Height                              : 1 080 pixels
      Display aspect ratio                : 16:9
      Frame rate mode                     : Constant
      Frame rate                          : 23.976 fps
      Original frame rate                 : 23.000 fps
      Color space                         : YUV
      Chroma subsampling                  : 4:2:0
      Bit depth                           : 8 bits
      Scan type                           : Progressive
      Bits/(Pixel*Frame)                  : 0.169
      Stream size                         : 401 MiB (98%)
      Language                            : English

       

      Audio

      ID                                  : 2
      Format                              : AAC
      Format/Info                         : Advanced Audio Codec
      Format profile                      : LC
      Codec ID                            : 40
      Duration                            : 6mn 39s
      Bit rate mode                       : Constant
      Bit rate                            : 160 Kbps
      Channel(s)                          : 2 channels
      Channel positions                   : Front: L R
      Sampling rate                       : 44.1 KHz
      Compression mode                    : Lossy
      Stream size                         : 7.61 MiB (2%)
      Title                               : Stereo
      Language                            : English

       

       

      mochasettings.png

      mocha1.png

      mocha2.png