1 Reply Latest reply on Aug 26, 2016 5:21 AM by Steve Grisetti

    Premiere Element 14: WinTV ts file Multi Track Audio Issue

    young oh80280448

      I just downloaded trial version of PE14 to test ts file(WinTV file) editing and found out multi track audio issue.

       

      I recorded football match and imported ts file to PE14. The problem is, I can hear the game sound but commentary's gone. I can hear the sound from the field but broadcasting commentary's gone. I don't think there's any audio problem during the commercial, but I there's no commentary audio during the game.

       

      The 'Mixer Options' shows "AUDIO 1 - Foreground", "Voice - Foreground", "Music - Background", "AUDIO 2 - Background", "AUDIO 3 - Background". I have no idea which track is what.

       

      I tried to change the "VOICE" setting to "Background", but I got error message saying "One or more selected file(s) could not be auto analyzed". Every time I tried to change the mixer setting, I received the same error message.

       

      (I tested another ts file, this time recorded TV drama, but the result was same. I could hear background music but there's no voice.)

       

      Can you tell me how I can fix this audio issue?

       

      Below is my ts file info:

       

      Format                                   : MPEG-TS

      File size                                : 22.2 GiB

      Duration                                 : 3 h 12 min

      Start time                               : UTC 2016-08-25 23:59:51

      End time                                 : UTC 2016-08-26 03:12:35

      Overall bit rate mode                    : Variable

      Overall bit rate                         : 16.5 Mb/s

      Law rating                               : N/A

       

      Video

      ID                                       : 49 (0x31)

      Menu ID                                  : 3 (0x3)

      Format                                   : MPEG Video

      Format version                           : Version 2

      Format profile                           : Main@High

      Format settings, BVOP                    : Yes

      Format settings, Matrix                  : Custom

      Format settings, GOP                     : Variable

      Format settings, picture structure       : Frame

      Codec ID                                 : 2

      Duration                                 : 3 h 12 min

      Bit rate mode                            : Variable

      Bit rate                                 : 15.1 Mb/s

      Maximum bit rate                         : 24.0 Mb/s

      Width                                    : 1 920 pixels

      Height                                   : 1 080 pixels

      Display aspect ratio                     : 16:9

      Frame rate                               : 29.970 (30000/1001) FPS

      Color space                              : YUV

      Chroma subsampling                       : 4:2:0

      Bit depth                                : 8 bits

      Scan type                                : Interlaced

      Scan order                               : Top Field First

      Compression mode                         : Lossy

      Bits/(Pixel*Frame)                       : 0.242

      Stream size                              : 20.3 GiB (92%)

       

      Audio #1

      ID                                       : 52 (0x34)

      Menu ID                                  : 3 (0x3)

      Format                                   : AC-3

      Format/Info                              : Audio Coding 3

      Mode extension                           : CM (complete main)

      Format settings, Endianness              : Big

      Codec ID                                 : 129

      Duration                                 : 3 h 12 min

      Bit rate mode                            : Constant

      Bit rate                                 : 384 kb/s

      Channel(s)                               : 6 channels

      Channel positions                        : Front: L C R, Side: L R, LFE

      Sampling rate                            : 48.0 kHz

      Frame rate                               : 31.250 FPS (1536 spf)

      Compression mode                         : Lossy

      Delay relative to video                  : -331 ms

      Stream size                              : 529 MiB (2%)

      Language                                 : English

       

      Audio #2

      ID                                       : 53 (0x35)

      Menu ID                                  : 3 (0x3)

      Format                                   : AC-3

      Format/Info                              : Audio Coding 3

      Mode extension                           : CM (complete main)

      Format settings, Endianness              : Big

      Codec ID                                 : 129

      Duration                                 : 3 h 12 min

      Bit rate mode                            : Constant

      Bit rate                                 : 192 kb/s

      Channel(s)                               : 2 channels

      Channel positions                        : Front: L R

      Sampling rate                            : 48.0 kHz

      Frame rate                               : 31.250 FPS (1536 spf)

      Compression mode                         : Lossy

      Delay relative to video                  : -299 ms

      Stream size                              : 265 MiB (1%)

      Language                                 : Spanish

       

      Text #1

      ID                                       : 49 (0x31)-CC1

      Menu ID                                  : 3 (0x3)

      Format                                   : EIA-608

      Muxing mode                              : A/53 / DTVCC Transport

      Muxing mode, more info                   : Muxed in Video #1

      Duration                                 : 3 h 12 min

      Bit rate mode                            : Constant

      Stream size                              : 0.00 Byte (0%)

       

      Text #2

      ID                                       : 49 (0x31)-1

      Menu ID                                  : 3 (0x3)

      Format                                   : EIA-708

      Muxing mode                              : A/53 / DTVCC Transport

      Muxing mode, more info                   : Muxed in Video #1

      Duration                                 : 3 h 12 min

      Bit rate mode                            : Constant

      Stream size                              : 0.00 Byte (0%)

        • 1. Re: Premiere Element 14: WinTV ts file Multi Track Audio Issue
          Steve Grisetti Adobe Community Professional

          If there are multiple channels of audio on your media clip, you're not going to hear all of the individual channels in Premiere Elements. Premiere Elements can not separate the audio for the commentary, football game, commercials, etc.

           

          The Music, Voice, Audio 1, etc., on the Smart Mixer refer to the audio tracks on your timeline. And you should be able to tell which is which just by looking at the timeline and seeing which audio clips are on each track.

           

          If you can't figure it out, post a screen capture of your timeline to this forum and we'll tell you.

          1 person found this helpful