1 Reply Latest reply on Feb 28, 2010 5:13 AM by Harm Millaard

    WHY some HDMP4 1920X1080 import to PAL720X576 jump frame & Moive is not a nomal 25FPS,MOVE TOO FAST?

    yokohama_2010

      WHY some HDMP4 1920X1080 import to PAL720X576 jump frame & Moive is not a nomal 25FPS,MOVE TOO FAST?

      My PC is WINX64,INTELQUAD Q8200, 8G RAM, PR CS4

       

      THE FILE CODE INFO:

      Title/More                       : SKY02 Digital Camera

       

      Movie name/More                  : SKY02 Digital Camera

       

      Encoded date                     : UTC 2008-01-07 00:00:29

       

      Tagged date                      : UTC 2008-01-07 00:00:29

       

      File creation date               : UTC 2010-01-25 12:22:48.500

       

      File last modification date      : UTC 2008-01-06 16:00:28.000

       

      Origin                           : Digital Camera

       

      TAGS                             : UNG DIGITAL MOVIE

       

      Codec ID                         : avc1
      Codec ID/Url                     : http://www.apple.com/quicktime/download/standalone.html
      Codec                            : AVC
      Codec                            : AVC
      Codec/Family                     : AVC
      Codec/Info                       : Advanced Video Codec
      Codec/Url                        : http://developers.videolan.org/x264.html
      Codec/CC                         : avc1
      Codec profile                    : Main@L4.0
      Codec settings                   : 2 Ref Frames
      Codec settings, CABAC            : No
      Codec_Settings_RefFrames         : 2
      Duration                         : 26240
      Duration                         : 26s 240ms
      Duration                         : 26s 240ms
      Duration                         : 26s 240ms
      Duration                         : 00:00:26.240
      Bit rate mode                    : VBR
      Bit rate                         : 14186831
      Bit rate                         : 14.2 Mbps
      Width                            : 1920
      Width                            : 1920 pixels
      Height                           : 1080
      Height                           : 1080 pixels
      Pixel Aspect Ratio               : 1.000
      Display aspect ratio             : 1.778
      Display aspect ratio             : 16/9
      Frame rate mode                  : CFR
      Frame rate                       : 50.000
      Frame rate                       : 50.000 fps
      FrameCount                       : 1312
      Colorimetry                      : 4:2:0
      Bits/(Pixel*Frame)               : 0.137
      Stream size                      : 46532807
      Stream size                      : 44.4 MiB
      Stream size                      : 44 MiB
      Stream size                      : 44 MiB
      Stream size                      : 44.4 MiB
      Stream size                      : 44.38 MiB
      Language                         : eng
      Language                         : English
      Encoded date                     : UTC 2008-01-07 00:00:29
      Tagged date                      : UTC 2008-01-07 00:00:29

      Audio
      Count                            : 102
      Count of stream of this kind     : 1
      Kind of stream                   : Audio
      StreamKindID                     : 0
      ID                               : 2
      Format                           : AAC
      Format/Info                      : Advanced Audio Codec
      Format version                   : Version 4
      Format profile                   : LC
      Format settings, SBR             : No
      Codec                            : A_AAC/MPEG4/LC
      Codec                            : AAC LC
      Codec/Family                     : AAC
      Codec/Info                       : AAC Low Complexity
      Codec/CC                         : 40
      Duration                         : 26240
      Duration                         : 26s 240ms
      Duration                         : 26s 240ms
      Duration                         : 26s 240ms
      Duration                         : 00:00:26.240
      Bit rate mode                    : VBR
      Bit rate                         : 127258
      Bit rate                         : 127 Kbps
      Nominal bit rate                 : 128000
      Nominal bit rate                 : 128 Kbps
      Maximum bit rate                 : 192000
      Maximum bit rate                 : 192 Kbps
      Channel(s)                       : 2
      Channel(s)                       : 2 channels
      Channel positions                : L R
      Sampling rate                    : 48000
      Sampling rate                    : 48.0 KHz
      SamplingCount                    : 1259520
      Resolution                       : 16
      Resolution                       : 16 bits
      Stream size                      : 417407
      Stream size                      : 408 KiB
      Stream size                      : 408 KiB
      Stream size                      : 408 KiB
      Stream size                      : 408 KiB
      Stream size                      : 407.6 KiB
      Language                         : eng
      Language                         : English
      Encoded date                     : UTC 2008-01-07 00:00:29
      Tagged date                      : UTC 2008-01-07 00:00:29