3 Replies Latest reply on Apr 26, 2010 1:09 AM by corporateicchan

    Cannot play H.264 MP4 in Windows Media Player

    corporateicchan

      I rendered a 60 min video, in H.264 MP4 format in

      Adobe Cs4 Premiere Pro, and when I played it in Windows Media Player 12, it does not work properly.

       

      The following is the detailed video file:

       

      Format                           : MPEG-4
      Format profile                   : Base Media / Version 2
      Codec ID                         : mp42
      File size                        : 1.12 GiB
      Duration                         : 50mn 2s
      Overall bit rate                 : 3 194 Kbps
      Encoded date                     : UTC 2010-04-22 04:36:40
      Tagged date                      : UTC 2010-04-22 04:36:40

      Video
      ID                               : 1
      Format                           : AVC
      Format/Info                      : Advanced Video Codec
      Format profile                   : Main@L3.1
      Format settings, CABAC           : Yes
      Format settings, ReFrames        : 4 frames
      Codec ID                         : avc1
      Codec ID/Info                    : Advanced Video Coding
      Duration                         : 50mn 1s
      Bit rate mode                    : Variable
      Bit rate                         : 3 001 Kbps
      Width                            : 720 pixels
      Height                           : 480 pixels
      Display aspect ratio             : 16:9
      Frame rate mode                  : Constant
      Frame rate                       : 29.970 fps
      Standard                         : NTSC
      Resolution                       : 8 bits
      Colorimetry                      : 4:2:0
      Scan type                        : Interlaced
      Scan order                       : Bottom Field First
      Bits/(Pixel*Frame)               : 0.290
      Stream size                      : 1.05 GiB (94%)
      Language                         : English
      Encoded date                     : UTC 2010-04-22 04:36:40
      Tagged date                      : UTC 2010-04-22 04:36:40

      Audio
      ID                               : 2
      Format                           : AAC
      Format/Info                      : Advanced Audio Codec
      Format version                   : Version 4
      Format profile                   : LC
      Format settings, SBR             : No
      Codec ID                         : 40
      Duration                         : 50mn 2s
      Bit rate mode                    : Variable
      Bit rate                         : 192 Kbps
      Maximum bit rate                 : 292 Kbps
      Channel(s)                       : 2 channels
      Channel positions                : L R
      Sampling rate                    : 48.0 KHz
      Stream size                      : 67.8 MiB (6%)
      Language                         : English
      Encoded date                     : UTC 2010-04-22 04:36:40
      Tagged date                      : UTC 2010-04-22 04:36:40