8 Replies Latest reply on May 30, 2010 12:37 AM by Gonzchi

    Create new sequence for GoPro HD camera in CS5

    Knoby129

      Can someone help me create a sequence in CS5 for a GoPro HD camera.  Which preset should I start with or what values should I change in the New Sequcne Window on the general tab?

       

      Here are the video details from a file using mediaplus.  Pixel Aspect Ratio: 1.0

       

      Thanks in advance.

       

      Format                           : MPEG-4
      Format profile                   : JVT
      Codec ID                         : avc1
      File size                        : 1.22 GiB
      Duration                         : 14mn 22s
      Overall bit rate                 : 12.1 Mbps
      Encoded date                     : UTC 2010-05-16 10:32:39
      Tagged date                      : UTC 2010-05-16 10:32:39
      AMBA                             :   

       

      Video
      ID                               : 1
      Format                           : AVC
      Format/Info                      : Advanced Video Codec
      Format profile                   : Main@L4.0
      Format settings, CABAC           : Yes
      Format settings, ReFrames        : 2 frames
      Format settings, GOP             : M=3, N=15
      Codec ID                         : avc1
      Codec ID/Info                    : Advanced Video Coding
      Duration                         : 14mn 22s
      Bit rate mode                    : Variable
      Bit rate                         : 12.0 Mbps
      Width                            : 1 280 pixels
      Height                           : 960 pixels
      Display aspect ratio             : 4:3
      Frame rate mode                  : Constant
      Frame rate                       : 29.970 fps
      Color space                      : YUV
      Chroma subsampling               : 4:2:0
      Bit depth                        : 8 bits
      Scan type                        : Progressive
      Bits/(Pixel*Frame)               : 0.326
      Stream size                      : 1.20 GiB (99%)
      Title                            :     GoPro AVC
      Language                         : English
      Encoded date                     : UTC 2010-05-16 10:32:39
      Tagged date                      : UTC 2010-05-16 10:32:39

       

      Audio
      ID                               : 2
      Format                           : AAC
      Format/Info                      : Advanced Audio Codec
      Format version                   : Version 4
      Format profile                   : LC
      Format settings, SBR             : No
      Codec ID                         : 40
      Duration                         : 14mn 22s
      Bit rate mode                    : Constant
      Bit rate                         : 128 Kbps
      Channel(s)                       : 2 channels
      Channel positions                : Front: L R
      Sampling rate                    : 48.0 KHz
      Stream size                      : 13.2 MiB (1%)
      Title                            :     GoPro AAC
      Language                         : English
      Encoded date                     : UTC 2010-05-16 10:32:39
      Tagged date                      : UTC 2010-05-16 10:32:39