10 Replies Latest reply on Jan 6, 2012 11:12 AM by Chantal Harvey

    Distorted picture while editing MP4 file in Adobe Premiere CS5

    mikim33

      hi,

      I am trying to edit an MP4 file in the Adobe Premiere CS5 and having a distorted picture every few seconds.

      When I am playing the original file using VLC or Media Player it looks OK.

      Untill now I didn't have problems with editing MP4 files.

      Did anybody had similar problem (and a solution )?

       

      I am adding the file info captured by MediaInfo:

       

      General

      Complete name                    : E:\tami\video\M4H04540.MP4

      Format                           : MPEG-4

      Format profile                   : Sony PSP

      Codec ID                         : MSNV

      File size                        : 17.5 MiB

      Duration                         : 16s 16ms

      Overall bit rate                 : 9 189 Kbps

      Encoded date                     : UTC 2011-07-01 07:14:25

      Tagged date                      : UTC 2011-07-01 07:14:40


      Video

      ID                               : 1

      Format                           : MPEG-4 Visual

      Format profile                   : Advanced Coding Efficiency@L4

      Format settings, BVOP            : Yes

      Format settings, QPel            : No

      Format settings, GMC             : No warppoints

      Format settings, Matrix          : Default (H.263)

      Codec ID                         : 20

      Duration                         : 16s 16ms

      Bit rate mode                    : Variable

      Bit rate                         : 9 000 Kbps

      Maximum bit rate                 : 14.0 Mbps

      Width                            : 1 280 pixels

      Height                           : 720 pixels

      Display aspect ratio             : 16:9

      Frame rate mode                  : Constant

      Frame rate                       : 29.970 fps

      Color space                      : YUV

      Bit depth                        : 8 bits

      Scan type                        : Progressive

      Compression mode                 : Lossy

      Bits/(Pixel*Frame)               : 0.326

      Stream size                      : 17.4 MiB (99%)

      Encoded date                     : UTC 2011-07-01 07:14:25

      Tagged date                      : UTC 2011-07-01 07:14:40


      Audio

      ID                               : 2

      Format                           : AAC

      Format/Info                      : Advanced Audio Codec

      Format profile                   : LC

      Codec ID                         : 40

      Duration                         : 16s 0ms

      Bit rate mode                    : Constant

      Bit rate                         : 64.0 Kbps

      Channel(s)                       : 1 channel

      Channel positions                : Front: C

      Sampling rate                    : 24.0 KHz

      Compression mode                 : Lossy

      Stream size                      : 125 KiB (1%)

      Encoded date                     : UTC 2011-07-01 07:14:25

      Tagged date                      : UTC 2011-07-01 07:14:40

       

      Thanks,

      Miki