6 Replies Latest reply on Nov 29, 2011 10:35 AM by Garlic Suter

    \src\timecode.cpp error with mp4

    arigoldrama

      cs5 always crashes when I try to use some mp4 files i converted (from wmv and mkv) using Handbrake software.

       

      the error is src\timecode.cpp-1078

       

       

       

      these are the infos of a file:

       

       

       

       


      General


      Complete name :


      aaaaaaaaaaaa.mp4


      Format :


      MPEG-4


      Format profile :


      Base Media / Version 2


      Codec ID :


      mp42


      File size :


      610 MiB


      Duration :


      27mn 2s


      Overall bit rate :


      3 155 Kbps


      Encoded date :



      Tagged date :



      Writing application :


      HandBrake 0.9.5 2011010300

       

       

       


      Video


      ID :


      1


      Format :


      AVC


      Format/Info :


      Advanced Video Codec


      Format profile :


      Main@L3.2


      Format settings, CABAC :


      Yes


      Format settings, ReFrames :


      4 frames


      Codec ID :


      avc1


      Codec ID/Info :


      Advanced Video Coding


      Duration :


      27mn 2s


      Bit rate mode :


      Variable


      Bit rate :


      3 000 Kbps


      Width :


      1 280 pixels


      Height :


      720 pixels


      Display aspect ratio :


      16:9


      Frame rate mode :


      Variable


      Frame rate :


      29.970 fps


      Minimum frame rate :


      29.412 fps


      Maximum frame rate :


      30.303 fps


      Resolution :


      8 bits


      Colorimetry :


      4:2:0


      Scan type :


      Progressive


      Bits/(Pixel*Frame) :


      0.109


      Stream size :


      584 MiB (96%)


      Writing library :


      x264 core 112


      Encoding settings :


      cabac=1 / ref=2 / deblock=1:0:0 / analyse=0x1:0x111 / me=hex / subme=6 / psy=1 / psy_rd=1.00:0.00 / mixed_ref=0 / me_range=16 / chroma_me=1 / trellis=0 / 8x8dct=0 / cqm=0 / deadzone=21,11 / fast_pskip=1 / chroma_qp_offset=-2 / threads=6 / sliced_threads=0 / nr=0 / decimate=1 / interlaced=0 / constrained_intra=0 / bframes=2 / b_pyramid=2 / b_adapt=1 / b_bias=0 / direct=1 / weightb=0 / open_gop=0 / weightp=2 / keyint=300 / keyint_min=30 / scenecut=40 / intra_refresh=0 / rc_lookahead=40 / rc=abr / mbtree=1 / bitrate=3000 / ratetol=1.0 / qcomp=0.60 / qpmin=3 / qpmax=51 / qpstep=4 / ip_ratio=1.40 / aq=1:1.00


      Encoded date :



      Tagged date :



      Color primaries :


      BT.709-5, BT.1361, IEC 61966-2-4, SMPTE RP177


      Transfer characteristics :


      BT.709-5, BT.1361


      Matrix coefficients :


      BT.709-5, BT.1361, IEC 61966-2-4 709, SMPTE RP177

       

       

       


      Audio


      ID :


      2


      Format :


      AAC


      Format/Info :


      Advanced Audio Codec


      Format version :


      Version 4


      Format profile :


      LC


      Format settings, SBR :


      No


      Codec ID :


      40


      Duration :


      27mn 2s


      Bit rate mode :


      Variable


      Bit rate :


      128 Kbps


      Maximum bit rate :


      240 Kbps


      Channel(s) :


      2 channels


      Channel positions :


      Front: L R


      Sampling rate :


      44.1 KHz


      Stream size :


      24.7 MiB (4%)


      Encoded date :



      Tagged date :


       

       

      what is the problem? could it be the Variable frame rate mode?