1 Reply Latest reply on Sep 28, 2011 5:29 AM by VDOSurfer

    Problem with audio - PCM

    John Kleon Level 1

      Hello all

       

      I have some movie clips from my camera:

       

       

      Format profile               : QuickTime
      Codec ID                     : qt 
      File size                    : 302 MiB
      Duration                     : 5mn 55s
      Overall bit rate             : 7 129 Kbps
      Encoded date                 : UTC 2004-01-01 00:00:00
      Tagged date                  : UTC 2004-01-01 00:00:00

       

      Video

      ID                           : 1
      Format                       : AVC
      Format/Info                  : Advanced Video Codec
      Format profile               : Main@L5.0
      Format settings, CABAC       : Yes
      Format settings, ReFrames    : 1 frame
      Codec ID                     : avc1
      Codec ID/Info                : Advanced Video Coding
      Duration                     : 5mn 55s
      Bit rate mode                : Variable
      Bit rate                     : 6 615 Kbps
      Width                        : 1 280 pixels
      Height                       : 720 pixels
      Display aspect ratio         : 16:9
      Frame rate mode              : Constant
      Frame rate                   : 30.000 fps
      Color space                  : YUV
      Chroma subsampling           : 4:2:0
      Bit depth                    : 8 bits
      Scan type                    : Progressive
      Bits/(Pixel*Frame)           : 0.239
      Stream size                  : 280 MiB (93%)
      Language                     : English
      Encoded date                 : UTC 2004-01-01 00:00:00
      Tagged date                  : UTC 2004-01-01 00:00:00

       

      Audio

      ID                           : 2
      Format                       : PCM
      Format settings, Endianness  : Little
      Format settings, Sign        : Signed
      Codec ID                     : sowt
      Duration                     : 5mn 55s
      Bit rate mode                : Constant
      Bit rate                     : 512 Kbps
      Channel(s)                   : 1 channel
      Sampling rate                : 32.0 KHz
      Bit depth                    : 16 bits
      Stream size                  : 21.7 MiB (7%)
      Language                     : English
      Encoded date                 : UTC 2004-01-01 00:00:00
      Tagged date                  : UTC 2004-01-01 00:00:00

       

       

       

      Problem is that when I import such video into adobe premiere pro or elements, video is working all OK, but sound just few seconds of beggining. In my windows player all working fine, for example windows media player classic. Where can be a problem. Sound is AVC, mono format. I also try to use "adobe media encoder" to encode to other formats but without sucess.

       

      Any help wil be appreciate.

       

      thanks