10 Replies Latest reply on Nov 14, 2011 5:41 PM by Colin Brougham

    AVI clip / WMP no audio / PPro CS5 no video....

    SunGator4545 Level 1

      I have an AVI clip that when played in Windows Media Player displays video, but no audio. When I import the same clip into PPro CS5, it displays file as audio without video. I ran the clip thru MediaInfo and got the following results:

       

      General
      Complete name                    : F:\#lewis_wedding\back_close_up\CLIP0004.AVI
      Format                           : AVI
      Format/Info                      : Audio Video Interleave
      File size                        : 810 MiB
      Duration                         : 20mn 23s
      Overall bit rate                 : 5 556 Kbps

      Video
      ID                               : 0
      Format                           : AVC
      Format/Info                      : Advanced Video Codec
      Format profile                   : Main@L4.0
      Format settings, CABAC           : Yes
      Format settings, ReFrames        : 1 frame
      Format settings, GOP             : M=1, N=5
      Codec ID                         : H264
      Duration                         : 20mn 23s
      Bit rate                         : 5 505 Kbps
      Width                            : 1 280 pixels
      Height                           : 720 pixels
      Display aspect ratio             : 16:9
      Frame rate                       : 30.000 fps
      Color space                      : YUV
      Chroma subsampling               : 4:2:0
      Bit depth                        : 8 bits
      Scan type                        : Progressive
      Bits/(Pixel*Frame)               : 0.199
      Stream size                      : 803 MiB (99%)

      Audio
      ID                               : 1
      Format                           : ADPCM
      Codec ID                         : 2
      Duration                         : 20mn 23s
      Bit rate mode                    : Constant
      Bit rate                         : 44.1 Kbps
      Channel(s)                       : 1 channel
      Sampling rate                    : 11.025 KHz
      Bit depth                        : 4 bits
      Stream size                      : 6.47 MiB (1%)
      Interleave, duration             : 185 ms (5.54 video frames)

       

      Am I missing a codec or something?    Running Creative Suite CS5, Win 7 Pro